-->

Building Drawers with Andy Rae

Building Drawers with Andy  Rae

Building Drawers with Andy Rae
DVDRip | English | AVI | 720 x 480 | XviD ~2660 kbps | 29.970 fps
AC-3 | 192 kbps | 48.0 KHz | 2 channels | 1hr 20mn | 1.4 GB
Genre: eLearning / Woodworking

If you take a good look inside a few houses, you'll find all types of drawers - each with its own style and functionality. There are dozens of ways to build drawers too - all requiring their own special strategies and techniques. In this new DVD on Building Drawers, master woodworker Andy Rae shows you precisely how to build a wide range of attractive, sturdy drawers that will work flawlessly for years.

If you're a cabinetmaker - or aspire to be - this DVD will be a valuable reference tool, since building drawers is such an essential part of creating cabinets that will look great and work properly. If you're a trim carpenter who builds cabinets or built-ins, you'll find the clear, step-by-step demonstrations on this DVD will be a great help on the job.

Whether you're building cabinet drawers in a kitchen, bath, built-in or stand-alone furniture, you'll get all the expert advice you need to handle every project with confidence. From the most basic drawers to those joined by elegant hand-cut dovetails, it's all here for you to see - brought to you by the consummate professional.

General
Complete name : Building_Drawers.avi
Format : AVI
Format/Info : Audio Video Interleave
File size : 1.37 GiB
Duration : 1h 8mn
Overall bit rate : 2 860 Kbps
Writing application : VirtualDubMod 1.5.4.1 (build 2178/release)
Writing library : VirtualDubMod build 2178/release

Video
ID : 0
Format : MPEG-4 Visual
Format profile : Advanced [email protected]
Format settings, BVOP : Yes
Format settings, QPel : No
Format settings, GMC : No warppoints
Format settings, Matrix : Custom
Codec ID : XVID
Codec ID/Hint : XviD
Duration : 1h 8mn
Bit rate : 2 660 Kbps
Width : 720 pixels
Height : 480 pixels
Display aspect ratio : 3:2
Frame rate : 29.970 fps
Standard : NTSC
Color space : YUV
Chroma subsampling : 4:2:0
Bit depth : 8 bits
Scan type : Progressive
Bits/(Pixel*Frame) : 0.257
Stream size : 1.27 GiB (93%)
Writing library : XviD 1.2.1 (UTC 2008-12-04)

Audio
ID : 1
Format : AC-3
Format/Info : Audio Coding 3
Mode extension : CM (complete main)
Codec ID : 2000
Duration : 1h 8mn
Bit rate mode : Constant
Bit rate : 192 Kbps
Channel(s) : 2 channels
Channel positions : Front: L R
Sampling rate : 48.0 KHz
Bit depth : 16 bits
Stream size : 94.0 MiB (7%)
Alignment : Aligned on interleaves
Interleave, duration : 96 ms (2.88 video frames)
Interleave, preload duration : 96 ms

Full ScreenShots


Building Drawers with Andy  Rae

Building Drawers with Andy  Rae

Building Drawers with Andy  Rae


Download link:

rapidgator_net:
https://rapidgator.net/file/f40cd303df909c8839f75a30be7e0d86/oem5i.Building.Drawers.with.Andy.Rae.part01.rar.html
https://rapidgator.net/file/99e822c50ac74d3dcef8ebe8e6390dca/oem5i.Building.Drawers.with.Andy.Rae.part02.rar.html
https://rapidgator.net/file/6fa1d2aa2a332674024f68b880b618bd/oem5i.Building.Drawers.with.Andy.Rae.part03.rar.html
https://rapidgator.net/file/10aa5d4ef50d5ee6b3adf28e1f9948ed/oem5i.Building.Drawers.with.Andy.Rae.part04.rar.html
https://rapidgator.net/file/fca22f8f89880ac2ece78111c8372adf/oem5i.Building.Drawers.with.Andy.Rae.part05.rar.html
https://rapidgator.net/file/2087deeb0737ac0097cf3154d893fdd8/oem5i.Building.Drawers.with.Andy.Rae.part06.rar.html
https://rapidgator.net/file/20a39505ad742fb2a1940a69292d7f33/oem5i.Building.Drawers.with.Andy.Rae.part07.rar.html
https://rapidgator.net/file/3d90bdeb75baf237f639ba8a0dbc178a/oem5i.Building.Drawers.with.Andy.Rae.part08.rar.html
https://rapidgator.net/file/cb1128a99d0ccc6627c9a8fd20a7b3cc/oem5i.Building.Drawers.with.Andy.Rae.part09.rar.html

nitroflare_com:
https://nitroflare.com/view/694283E74056C5B/oem5i.Building.Drawers.with.Andy.Rae.part01.rar
https://nitroflare.com/view/4FD09E2904B8613/oem5i.Building.Drawers.with.Andy.Rae.part02.rar
https://nitroflare.com/view/79F861338384FCA/oem5i.Building.Drawers.with.Andy.Rae.part03.rar
https://nitroflare.com/view/53AB92B64276360/oem5i.Building.Drawers.with.Andy.Rae.part04.rar
https://nitroflare.com/view/0AAF20F8F1B388D/oem5i.Building.Drawers.with.Andy.Rae.part05.rar
https://nitroflare.com/view/0B0FF10E733E905/oem5i.Building.Drawers.with.Andy.Rae.part06.rar
https://nitroflare.com/view/2890255181B4AB6/oem5i.Building.Drawers.with.Andy.Rae.part07.rar
https://nitroflare.com/view/AD7CB537195E61D/oem5i.Building.Drawers.with.Andy.Rae.part08.rar
https://nitroflare.com/view/7FF3BED9BF66AF3/oem5i.Building.Drawers.with.Andy.Rae.part09.rar

uploadgig_com:
http://uploadgig.com/file/download/efbce8Cd1b5153b0/oem5i.Building.Drawers.with.Andy.Rae.part01.rar
http://uploadgig.com/file/download/0a694659aeF47c79/oem5i.Building.Drawers.with.Andy.Rae.part02.rar
http://uploadgig.com/file/download/a91da928578Cde10/oem5i.Building.Drawers.with.Andy.Rae.part03.rar
http://uploadgig.com/file/download/54ED0f3Df925A990/oem5i.Building.Drawers.with.Andy.Rae.part04.rar
http://uploadgig.com/file/download/34ef27927230b07E/oem5i.Building.Drawers.with.Andy.Rae.part05.rar
http://uploadgig.com/file/download/c1dfe1fDfb8691e0/oem5i.Building.Drawers.with.Andy.Rae.part06.rar
http://uploadgig.com/file/download/5ab5987510af9d4b/oem5i.Building.Drawers.with.Andy.Rae.part07.rar
http://uploadgig.com/file/download/7902c434945f924D/oem5i.Building.Drawers.with.Andy.Rae.part08.rar
http://uploadgig.com/file/download/8a39951A79a0C673/oem5i.Building.Drawers.with.Andy.Rae.part09.rar


Links are Interchangeable - No Password - Single Extraction

Hello Respective Visitor!

Please Login or Create a FREE Account to gain accesss to hidden contents.

Information

Would you like to leave your comment? Please Login to your account to leave comments. Don't have an account? You can create a free account now.