-->

ADSR Sounds - FM synthesis with Ableton Operator

ADSR Sounds - FM synthesis with Ableton  Operator

ADSR Sounds - FM synthesis with Ableton Operator
WEBRip | English | MP4 | 1152 x 720 | AVC ~1392 kbps | 29.970 fps
AAC 66.2 Kbps 44.1 KHz | 2 channels | 02:04:39 | 1.43 GB
Genre: eLearning Video / Sound Processing, Music Production
In this 14-part video course, Jonny Strinati shows you how to hit the sweet spot with FM Synthesis using Ableton Operator.


Content:

01. Intro to FM synthesis
02. LFO shell
03. Filter shell
04. Pitch shell
05. Global shell
06. FM bell
07. FM sitar
08. Future house garage bass
09. Garage womp bass
10. 303 Acid synth
11. Dirty electro wobble
12. Waveform modulation
13. FM sequences
14. FM pads with user waveforms

General
Complete name : 06 FM bell.mp4
Format : MPEG-4
Format profile : Base Media
Codec ID : isom (mp41/avc1)
File size : 52.3 MiB
Duration : 4 min 59 s
Overall bit rate mode : Variable
Overall bit rate : 1 465 kb/s
Encoded date : UTC 2016-08-19 02:53:54
Tagged date : UTC 2016-08-19 02:53:54
Writing application : vlc 2.2.4 stream output
Comment : QuickTime 6.0 or greater

Video
ID : 1
Format : AVC
Format/Info : Advanced Video Codec
Format profile : [email protected]
Format settings : 3 Ref Frames
Format settings, CABAC : No
Format settings, RefFrames : 3 frames
Format settings, GOP : M=1, N=100
Codec ID : avc1
Codec ID/Info : Advanced Video Coding
Duration : 4 min 59 s
Bit rate : 1 392 kb/s
Width : 1 152 pixels
Height : 720 pixels
Display aspect ratio : 16:10
Frame rate mode : Variable
Frame rate : 29.970 (30000/1001) FPS
Minimum frame rate : 29.412 FPS
Maximum frame rate : 30.303 FPS
Color space : YUV
Chroma subsampling : 4:2:0
Bit depth : 8 bits
Scan type : Progressive
Bits/(Pixel*Frame) : 0.056
Stream size : 49.6 MiB (95%)
Writing library : Zencoder Video Encoding System
Language : English
Encoded date : UTC 2016-08-19 02:53:54
Tagged date : UTC 2016-08-19 02:53:54
Color range : Limited
Color primaries : BT.709
Transfer characteristics : BT.709
Matrix coefficients : BT.709

Audio
ID : 2
Format : AAC
Format/Info : Advanced Audio Codec
Format profile : LC
Codec ID : mp4a-40-2
Duration : 4 min 59 s
Source duration : 4 min 59 s
Bit rate mode : Variable
Bit rate : 66.2 kb/s
Maximum bit rate : 150 kb/s
Channel(s) : 2 channels
Channel positions : Front: L R
Sampling rate : 44.1 kHz
Frame rate : 43.066 FPS (1024 SPF)
Compression mode : Lossy
Stream size : 2.33 MiB (4%)
Source stream size : 2.33 MiB (4%)
Language : English
Encoded date : UTC 2016-08-19 02:53:54
Tagged date : UTC 2016-08-19 02:53:54
mdhd_Duration : 299188

Screenshots


ADSR Sounds - FM synthesis with Ableton  Operator

ADSR Sounds - FM synthesis with Ableton  Operator

ADSR Sounds - FM synthesis with Ableton  Operator


Download link:

rapidgator_net:
https://rapidgator.net/file/c0e677f2110eb8f289b08b23678664bf/sd9ds.ADSR.Sounds..FM.synthesis.with.Ableton.Operator.part1.rar.html
https://rapidgator.net/file/5778ac7819654dc4d4c649d104d6c542/sd9ds.ADSR.Sounds..FM.synthesis.with.Ableton.Operator.part2.rar.html
https://rapidgator.net/file/5ce33dec1a704f55300098e3f8efefed/sd9ds.ADSR.Sounds..FM.synthesis.with.Ableton.Operator.part3.rar.html
https://rapidgator.net/file/f4433e639142b612c1c63c6a48944fd7/sd9ds.ADSR.Sounds..FM.synthesis.with.Ableton.Operator.part4.rar.html
https://rapidgator.net/file/02fa5b408aeb6d97a87927745bd742c8/sd9ds.ADSR.Sounds..FM.synthesis.with.Ableton.Operator.part5.rar.html
https://rapidgator.net/file/2110d1be2b3ea899c58a770343936f54/sd9ds.ADSR.Sounds..FM.synthesis.with.Ableton.Operator.part6.rar.html
https://rapidgator.net/file/b7ea4a9568717ac297be1d16c0779901/sd9ds.ADSR.Sounds..FM.synthesis.with.Ableton.Operator.part7.rar.html
https://rapidgator.net/file/46c986eb3b6a2105d3abb9db14f9141a/sd9ds.ADSR.Sounds..FM.synthesis.with.Ableton.Operator.part8.rar.html

nitroflare_com:
https://nitroflare.com/view/D2D5BC00D285FB9/sd9ds.ADSR.Sounds..FM.synthesis.with.Ableton.Operator.part1.rar
https://nitroflare.com/view/AD37341D20E0C66/sd9ds.ADSR.Sounds..FM.synthesis.with.Ableton.Operator.part2.rar
https://nitroflare.com/view/DA25321A383EECA/sd9ds.ADSR.Sounds..FM.synthesis.with.Ableton.Operator.part3.rar
https://nitroflare.com/view/08830F3EE800977/sd9ds.ADSR.Sounds..FM.synthesis.with.Ableton.Operator.part4.rar
https://nitroflare.com/view/757322D0A67BEE8/sd9ds.ADSR.Sounds..FM.synthesis.with.Ableton.Operator.part5.rar
https://nitroflare.com/view/3387B19856B82F3/sd9ds.ADSR.Sounds..FM.synthesis.with.Ableton.Operator.part6.rar
https://nitroflare.com/view/C3032F17B95DA79/sd9ds.ADSR.Sounds..FM.synthesis.with.Ableton.Operator.part7.rar
https://nitroflare.com/view/C8D520158AF7162/sd9ds.ADSR.Sounds..FM.synthesis.with.Ableton.Operator.part8.rar

uploadgig_com:
http://uploadgig.com/file/download/8e9Df33d5cb8D398/sd9ds.ADSR.Sounds..FM.synthesis.with.Ableton.Operator.part1.rar
http://uploadgig.com/file/download/dcdbb326D4E952E5/sd9ds.ADSR.Sounds..FM.synthesis.with.Ableton.Operator.part2.rar
http://uploadgig.com/file/download/6Be8f8Bf5aF9763b/sd9ds.ADSR.Sounds..FM.synthesis.with.Ableton.Operator.part3.rar
http://uploadgig.com/file/download/eaDe04c2163bbF67/sd9ds.ADSR.Sounds..FM.synthesis.with.Ableton.Operator.part4.rar
http://uploadgig.com/file/download/3f2fa24b088320C0/sd9ds.ADSR.Sounds..FM.synthesis.with.Ableton.Operator.part5.rar
http://uploadgig.com/file/download/20cbe7a32f34411b/sd9ds.ADSR.Sounds..FM.synthesis.with.Ableton.Operator.part6.rar
http://uploadgig.com/file/download/f40e9850455Ee2fd/sd9ds.ADSR.Sounds..FM.synthesis.with.Ableton.Operator.part7.rar
http://uploadgig.com/file/download/2eb9f927611d2bbd/sd9ds.ADSR.Sounds..FM.synthesis.with.Ableton.Operator.part8.rar


Links are Interchangeable - No Password - Single Extraction

Hello Respective Visitor!

Please Login or Create a FREE Account to gain accesss to hidden contents.

Information

Would you like to leave your comment? Please Login to your account to leave comments. Don't have an account? You can create a free account now.